Skip to main content

Reply to this post | See parent post | Go Back
View Post [edit]

Poster: CharlieMiller Date: Jun 20, 2011 6:08am
Forum: GratefulDead Subject: Re: Capitol Theatre 11/24/78

http://www.archive.org/details/gd1978-11-24.pre-fm.miller.87642.sbeok.flac16


Grateful Dead - November 24, 1978
Capitol Theatre - Passaic, NJ

Recording Info:
WBCN Pre-FM -> Studer Console -> Master Reel -> Dat/0 (Sony ES/48k)

Transfer Info:
Dat (Sony D8) -> Samplitude Professional v9.11 -> FLAC
(3 Discs Audio / 2 Discs FLAC)

All Transfers and Mastering By Charlie Miller
charliemiller87@earthlink.net
October 10, 2007

Notes:
-- All disc changes are seamless
-- Soundcheck from Dan Sisler's video tape (sorry about the quality)
-- Thanks to cryptical5 for the Master Dats
-- Ollin Arrageed with Hamza El Din
-- Cleaned up many flaws and removed station ID's

Patch Info:
FM -> Master Reel -> CD (shnid=8364) supplies:
Me And My Uncle (0:43 - 1:07)
Big River (1:54 - 1:55) (2:55 - 2:56) (5:05 - 5:21)
Radio Station Interviews (complete track)
Friend Of The Devil (9:01 - 11:30 post song tuning)

Soundcheck:
d1t01 - Tuning
d1t02 - Stagger Lee
d1t03 - I Need A Miracle ->
d1t04 - Good Lovin'

Set 1:
d1t05 - Introduction
d1t06 - Jack Straw
d1t07 - Sugaree
d1t08 - Me And My Uncle ->
d1t09 - Big River
d1t10 - Stagger Lee
d1t11 - Passenger
d1t12 - Candyman
d1t13 - New Minglewood Blues
d2t01 - From The Heart Of Me
d2t02 - Loser
d2t03 - The Promised Land

Setbreak:
d2t04 - Radio Station Interviews

Set 2:
d2t05 - Tuning
d2t06 - I Need A Miracle ->
d2t07 - Good Lovin'
d2t08 - Friend Of The Devil
d3t01 - Estimated Prophet ->
d3t02 - Shakedown Street ->
d3t03 - Drums ->
d3t04 - Ollin Arrageed ->
d3t05 - Fire On The Mountain ->
d3t06 - Sugar Magnolia

Encore:
d3t07 - Johnny B. Goode


SHNTOOL OUTPUT:
length expanded size cdr WAVE problems filename
1:17.55 13712204 --- -- ----- gd78-11-24d1t01.wav
2:22.63 25197020 --- -- ----- gd78-11-24d1t02.wav
4:17.11 45360716 --- -- ----- gd78-11-24d1t03.wav
4:58.14 52600172 --- -- ----- gd78-11-24d1t04.wav
0:51.19 9041132 --- -- ----- gd78-11-24d1t05.wav
6:20.31 67104956 --- -- ----- gd78-11-24d1t06.wav
13:13.56 140016956 --- -- ----- gd78-11-24d1t07.wav
2:59.54 31702652 --- -- ----- gd78-11-24d1t08.wav
7:02.01 74443196 --- -- ----- gd78-11-24d1t09.wav
9:09.06 96857756 --- -- ----- gd78-11-24d1t10.wav
7:07.07 75339308 --- -- ----- gd78-11-24d1t11.wav
9:02.52 95731148 --- -- ----- gd78-11-24d1t12.wav
6:09.16 65129276 --- -- ----- gd78-11-24d1t13.wav
5:22.41 56897276 --- -- ----- gd78-11-24d2t01.wav
9:13.35 97631564 --- -- ----- gd78-11-24d2t02.wav
4:24.54 46696652 --- -- ----- gd78-11-24d2t03.wav
31:25.28 332579900 --- -- ----- gd78-11-24d2t04.wav
1:08.71 12162236 --- -- ----- gd78-11-24d2t05.wav
4:21.42 46139228 --- -- ----- gd78-11-24d2t06.wav
9:19.15 98642924 --- -- ----- gd78-11-24d2t07.wav
12:38.28 133777100 --- -- ----- gd78-11-24d2t08.wav
12:44.27 134833148 --- -- ----- gd78-11-24d3t01.wav
12:36.39 133450172 --- -- ----- gd78-11-24d3t02.wav
7:46.52 82324748 --- -- ----- gd78-11-24d3t03.wav
6:37.24 70087292 --- -- ----- gd78-11-24d3t04.wav
9:00.09 95277212 --- -- ----- gd78-11-24d3t05.wav
8:53.45 94127084 --- -- ----- gd78-11-24d3t06.wav
4:37.28 48928700 --- -- ----- gd78-11-24d3t07.wav
215:01.23 2275791728 B (totals for 28 files)

Reply to this post
Reply [edit]

Poster: dark.starz Date: Jun 20, 2011 2:01pm
Forum: GratefulDead Subject: Re: Capitol Theatre 11/24/78

I put an ear on this before posting the other recording, the sound is good, very transparent, and like you, i sat at the radio that evening taping this show and the sound of that broadcast was very punchy and warm, and i found a little bit more of that character in the other recording.

No offense, your a good man Charlie Miller!

Reply to this post
Reply [edit]

Poster: CharlieMiller Date: Jun 20, 2011 7:46pm
Forum: GratefulDead Subject: Re: Capitol Theatre 11/24/78

I taped this show off the radio. It was a fun night. As for the Jay Ashley source, it traces back to the Dats I circulated, but there were a ton of other transfers between the master and Jay's source, where as my source was from the master (thanks to the dat owner for passing along the masters to me).

Reply to this post
Reply [edit]

Poster: Cliff Hucker Date: Jun 20, 2011 4:12pm
Forum: GratefulDead Subject: Re: Capitol Theatre 11/24/78

You didnt tape this show either Kochman. Why lie to every one here about it?

Reply to this post
Reply [edit]

Poster: Skobud Date: Jun 21, 2011 5:38am
Forum: GratefulDead Subject: Re: Capitol Theatre 11/24/78

Rob, youre an idiot.

Reply to this post
Reply [edit]

Poster: utopian Date: Jun 20, 2011 1:18pm
Forum: GratefulDead Subject: Re: Capitol Theatre 11/24/78

"Would somebody get these pink elephants off the stage?"